日本古代史论坛

 找回密码
 入住日史

QQ登录

只需一步,快速开始

扫一扫,访问微社区

搜索
查看: 189|回复: 3

[360&度盘][2014 TBS 720P HDTV DoA MKV][地狱先生 全10集]

[复制链接]
发表于 2016-3-11 22:39:25 | 显示全部楼层 |阅读模式
本帖最后由 武田牧易 于 2016-3-25 11:23 编辑

如果对本资源有任何感触,除直接回帖表达之外,推荐前往千樱庭的吐槽专贴进行吐槽→太宰府日本资源吐槽专贴






导演: 佐久间纪佳
编剧: マギー
主演: 丸山隆平 / 桐谷美玲 / 速水重道 / 山本美月 / 高桥英树 / 更多...
类型: 剧情
官方网站: www.ntv.co.jp/nube/
制片国家/地区: 日本
语言: 日语
首播: 2014-10-11(日本)
集数: 10
又名: 灵异教师神眉 / Hell Teacher Nube / Jigoku Sensei Nube
IMDb链接: tt3775578

阴云密布的童守高中迎来新的学期,神神叨叨的新老师鵺野鸣介(丸山隆平 饰)和帅气迷人的玉藻(速水重道 饰)走马上任。鸣介因为童年的经历,拥有常人无法想象的能力,但是在众人面前他总是一副怪力乱神毫不可靠的样子。而他的学生立野广(中川大志 饰)、木村克也(吉泽亮 饰)、稻叶乡子(松井爱莉 饰)、细川美树则是一群问题多多却各有优点的少男少女。鸣介喜欢美丽古板的女老师高桥律子(桐谷美玲 饰),同时又被多年前救过的雪女(知英 饰)所纠缠,生活可谓一团糟。更令人应接不暇的是,各类可怕的妖怪交替出现在童守町,鸣介只有用他的鬼手保护可爱的学生们……
  本片根据同名漫画改编。

  1. Video
  2. ID                             : 1
  3. Format                         : AVC
  4. Duration                       : 57mn 24s
  5. Bit rate                       : 3 679 Kbps
  6. Width                          : 1 280 pixels
  7. Height                         : 720 pixels
  8. Display aspect ratio           : 16:9
  9. Frame rate mode                : Constant
  10. Frame rate                     : 29.970 (30000/1001) fps
  11. Color space                    : YUV
  12. Chroma subsampling             : 4:2:0
  13. Bit depth                      : 8 bits
  14. Scan type                      : Progressive
  15. Bits/(Pixel*Frame)             : 0.133
  16. Stream size                    : 1.48 GiB (95%)

  17. Audio
  18. ID                             : 2
  19. Format                         : AAC
  20. Duration                       : 57mn 24s
  21. Bit rate                       : 192 Kbps
  22. Channel(s)                     : 2 channels
  23. Channel positions              : Front: L R
  24. Sampling rate                  : 96.0 KHz / 48.0 KHz
  25. Frame rate                     : 46.875 fps (1024 spf)
  26. Compression mode               : Lossy
  27. Delay relative to video        : 8ms
  28. Stream size                    : 77.5 MiB (5%)
  29. Default                        : Yes
  30. Forced                         : No
复制代码









游客,如果您要查看本帖隐藏内容请回复

本帖子中包含更多资源

您需要 登录 才可以下载或查看,没有帐号?入住日史

x

评分

参与人数 1知行 +3 银子 +90 收起 理由
武田牧易 + 3 + 90 感谢分享!

查看全部评分

回复

使用道具 举报

发表于 2016-3-13 07:48:39 | 显示全部楼层
谢谢分享!!!!
回复

使用道具 举报

发表于 2016-3-13 08:06:07 | 显示全部楼层
看过漫画,哈哈。谢谢分享
回复 支持 反对

使用道具 举报

发表于 2017-5-18 23:10:32 | 显示全部楼层
玄幻剧,题材不错。
回复 支持 反对

使用道具 举报

您需要登录后才可以回帖 登录 | 入住日史

本版积分规则

手机版|小黑屋|Archiver|日本古代史论坛  

GMT+8, 2017-5-30 15:17 , Processed in 0.073564 second(s), 30 queries , Gzip On.

Powered by Discuz! X3.2

© 2001-2013 Comsenz Inc.

快速回复 返回顶部 返回列表