日本古代史论坛

 找回密码
 入住日史

QQ登录

只需一步,快速开始

扫一扫,访问微社区

搜索
查看: 1384|回复: 3

[360&度盘][2008 NTV 720P AVI 15G][正义的伙伴 全10集]

[复制链接]
发表于 2016-8-7 07:28:06 | 显示全部楼层 |阅读模式
本帖最后由 武田牧易 于 2016-8-16 15:42 编辑

如果对本资源有任何感触,除直接回帖表达之外,推荐前往千樱庭的吐槽专贴进行吐槽→太宰府日本资源吐槽专贴







导演: 中岛悟 / 阿部雄一
编剧: Shizuka Ouki / Erika Seki / 福间正浩
主演: 志田未来 / 山田优 / 本乡奏多 / 佐野史郎 / 田中好子 / 向井理
类型: 剧情
官方网站: www.ntv.co.jp/seigi
制片国家/地区: 日本
语言: 日语
首播: 2008-07-09(日本)
集数: 10
单集片长: 54分钟
又名: 正義的夥伴 / Seigi no mikata
IMDb链接: tt1284605

槙子(山田優饰)是全家的骄傲:她优雅貌美,智力超群,还拥有人人羡慕的公务员金饭碗。可是美丽的外表之下,却是以自我为绝对中心,睚眦必报,自私自利,甚至“日行一恶”的恶魔本质。
  相形之下,妹妹容子(志田未来饰)显得平凡得多了,她还是唯一知道姐姐真面目的人:打出生以来,容子就开始被姐姐欺负,可和姐姐的回合无一不是以落败告终,也只好乖乖成为姐姐役使的小奴隶,每日生活在被压迫和剥削的水深火热中。
  让容子深感不可思议的是,槙子每回作恶却总是起到反效果,变本加厉的恶行总是会得到意外的好结局,槙子也因此被奉为“正义的伙伴”,愈加声名远扬……








  1. General
  2. Format                         : AVI
  3. Format/Info                    : Audio Video Interleave
  4. Format profile                 : OpenDML
  5. File size                      : 2.07 GiB
  6. Duration                       : 57mn 49s
  7. Overall bit rate               : 5 128 Kbps

  8. Video
  9. ID                             : 0
  10. Format                         : MPEG-4 Visual
  11. Format settings, BVOP          : No
  12. Format settings, QPel          : No
  13. Format settings, GMC           : No warppoints
  14. Format settings, Matrix        : Default (H.263)
  15. Codec ID                       : DX50
  16. Codec ID/Hint                  : DivX 5
  17. Duration                       : 57mn 49s
  18. Bit rate                       : 4 920 Kbps
  19. Width                          : 1 280 pixels
  20. Height                         : 720 pixels
  21. Display aspect ratio           : 16:9
  22. Frame rate                     : 29.970 fps
  23. Color space                    : YUV
  24. Chroma subsampling             : 4:2:0
  25. Bit depth                      : 8 bits
  26. Scan type                      : Progressive
  27. Compression mode               : Lossy
  28. Bits/(Pixel*Frame)             : 0.178
  29. Stream size                    : 1.99 GiB (96%)
  30. Writing library                : DivX 6.8.3-6.8.4 (UTC 2008-06-07)

  31. Audio
  32. ID                             : 1
  33. Format                         : MPEG Audio
  34. Format version                 : Version 1
  35. Format profile                 : Layer 3
  36. Codec ID                       : 55
  37. Codec ID/Hint                  : MP3
  38. Duration                       : 57mn 49s
  39. Bit rate mode                  : Constant
  40. Bit rate                       : 192 Kbps
  41. Channel(s)                     : 2 channels
  42. Sampling rate                  : 48.0 KHz
  43. Compression mode               : Lossy
  44. Stream size                    : 79.4 MiB (4%)
  45. Alignment                      : Split accross interleaves
  46. Interleave, duration           : 33 ms (1.00 video frame)
  47. Interleave, preload duration   : 500 ms

复制代码


游客,如果您要查看本帖隐藏内容请回复

本帖子中包含更多资源

您需要 登录 才可以下载或查看,没有帐号?入住日史

x

评分

参与人数 1知行 +6 银子 +50 收起 理由
武田牧易 + 6 + 50 感谢分享!

查看全部评分

回复

使用道具 举报

发表于 2016-8-10 01:34:41 | 显示全部楼层
谢谢楼主分享
回复 支持 反对

使用道具 举报

发表于 2016-8-14 11:09:17 | 显示全部楼层
谢谢分享。看看
回复 支持 反对

使用道具 举报

发表于 2018-8-8 15:22:48 | 显示全部楼层
谢谢楼主分享
回复 支持 反对

使用道具 举报

您需要登录后才可以回帖 登录 | 入住日史

本版积分规则

Archiver|手机版|小黑屋|日本古代史论坛 ( 蜀ICP备05000094号

GMT+8, 2020-5-26 18:44 , Processed in 0.075658 second(s), 27 queries , Gzip On.

Powered by Discuz! X3.2

© 2001-2013 Comsenz Inc.

快速回复 返回顶部 返回列表