日本古代史论坛

 找回密码
 入住日史

QQ登录

只需一步,快速开始

扫一扫,访问微社区

搜索
查看: 837|回复: 2

[360&度盘][2014 720P TBS HDTV MKV 14G DoA][mozu season1 全9集]

[复制链接]
发表于 2016-8-31 17:00:02 | 显示全部楼层 |阅读模式
本帖最后由 武田牧易 于 2016-10-14 16:05 编辑

如果对本资源有任何感触,除直接回帖表达之外,推荐前往千樱庭的吐槽专贴进行吐槽→太宰府日本资源吐槽专贴







中文名:MOZU Season1 ~百舌呐喊的夜晚~
外文名:MOZU Season1~百舌の叫ぶ夜~ / Mozu Season 1 - Mozu no Sakebu Yoru / Mozu Season 1 - Shrike's Shouting Night
导演: 羽住英一郎
编剧: 仁志光佑 / 逢坂剛(原作)
主演: 西岛秀俊 / 香川照之 / 真木阳子 / 生濑胜久 / 吉田钢太郎 / 伊藤淳史 / 有村架纯 / 池松壮亮 / 奥贯薫 / 户田昌宏 / 鹤见辰吾 / 染谷将太 / 田口浩正 / 田中要次 / 堀内敬子 / 杉咲花 / 音月桂 / 阿部力 / 瑳川哲朗 / 品川彻 / 长谷川博己 / 石田

百合子 / 小日向文世
类型: 剧情
官方网站: www.tbs.co.jp/mozu_tbs/
制片国家/地区: 日本
语言: 日语
首播: 2014-04-10(日本)
集数: 10
单集片长: 46分钟
IMDb链接: tt3267222

剧情简介:
        熙攘闹市街头突然发生爆炸,现场一片混乱,三名死者中的主妇千寻(石田百合子 饰)则是警视厅公安部特务第一课警部仓木尚武(西岛秀俊 饰)的妻子。由于涉嫌恐怖组织袭击,警视厅方面安排公安和搜查一课共同组建搜查本部,然而仓木却被排除在外。
案发后搜查一课警部补大杉良太(香川照之 饰)与仓木有过一面之缘,他辗转找到曾在现场露面的公安部公安二课巡查部长明星美希(真木阳子 饰)试图弄清事件背后的真相。与此同时,仓木也独自展开调查,并从美希那里得到重要情报。远离喧嚣的另一头,被称作杀手的新谷和彦(池松壮亮 饰)被人推下悬崖,侥幸逃生的他记忆丧失,而他似乎正是爆炸事件的关键人物。扑朔迷离的案情,被刻意隐瞒的真相与事实,争分夺秒的战争已全面展开……
  本片根据逢坂刚的原作改编。








  1. General
  2. File size                      : 1.85 GiB
  3. Duration                       : 1h 30mn
  4. Overall bit rate               : 2 906 Kbps
  5. Encoded date                   : UTC 2015-02-15 05:05:54

  6. Video
  7. ID                             : 1
  8. Format                         : AVC
  9. Duration                       : 1h 30mn
  10. Bit rate                       : 2 715 Kbps
  11. Width                          : 1 280 pixels
  12. Height                         : 720 pixels
  13. Display aspect ratio           : 16:9
  14. Frame rate mode                : Constant
  15. Frame rate                     : 23.976 (24000/1001) fps
  16. Color space                    : YUV
  17. Chroma subsampling             : 4:2:0
  18. Bit depth                      : 8 bits
  19. Scan type                      : Progressive
  20. Bits/(Pixel*Frame)             : 0.123
  21. Stream size                    : 1.72 GiB (93%)

  22. Audio
  23. ID                             : 2
  24. Format                         : AAC
  25. Duration                       : 1h 30mn
  26. Bit rate                       : 192 Kbps
  27. Channel(s)                     : 2 channels
  28. Channel positions              : Front: L R
  29. Sampling rate                  : 48.0 KHz
  30. Frame rate                     : 46.875 fps (1024 spf)
  31. Compression mode               : Lossy
  32. Stream size                    : 123 MiB (6%)
  33. Language                       : Japanese
  34. Default                        : Yes
  35. Forced                         : No

复制代码


游客,如果您要查看本帖隐藏内容请回复

本帖子中包含更多资源

您需要 登录 才可以下载或查看,没有帐号?入住日史

x

评分

参与人数 1知行 +3 银子 +91 收起 理由
武田牧易 + 3 + 91 感谢分享!

查看全部评分

回复

使用道具 举报

发表于 2016-9-4 13:36:35 | 显示全部楼层
谢谢,我来啦。
回复 支持 反对

使用道具 举报

发表于 2018-8-8 15:04:59 | 显示全部楼层
謝謝樓主的分享
回复 支持 反对

使用道具 举报

您需要登录后才可以回帖 登录 | 入住日史

本版积分规则

Archiver|手机版|小黑屋|日本古代史论坛 ( 蜀ICP备05000094号

GMT+8, 2020-5-25 21:27 , Processed in 0.071907 second(s), 30 queries , Gzip On.

Powered by Discuz! X3.2

© 2001-2013 Comsenz Inc.

快速回复 返回顶部 返回列表