日本古代史论坛

 找回密码
 入住日史

QQ登录

只需一步,快速开始

扫一扫,访问微社区

搜索
查看: 1167|回复: 8

[度盘][2010 720P HDJ MKV 粤日双语 16G CHDTV][打工仔买房记 全10集]

[复制链接]
发表于 2016-10-1 21:48:18 | 显示全部楼层 |阅读模式


【中文名称】:散工买楼梦 / 打工仔买房记
【英文名称】:Job Hopper Buys a House / Freeter Ie wo Kau
【日文名称】:フリーター、家を买う。
【制作公司】:富士电视台
【播出时间】:2010年10月19日-2010年12月21日 (日本)
【导  演】:河野圭太、城宝秀则
【编  剧】:桥部敦子
【主  演】:二宫和也、香里奈、竹中直人、浅野温子、井川遥等
【类  型】:亲情,剧情
【集  数】:10集
【语  言】:粤语、日语
【字    幕】:内置简繁
【官  网】:http://www.fujitv.co.jp/ie-wo-kau/index.html

【剧情简介】

  三流大学毕业后就职的武诚治(二宫和也饰),因为无法适应公司生活、工作三个月后便辞掉了工作。一心以为自己可以找到好工作的诚治在求职路上却并不顺利,只得过着打工仔(フリーター)的生活。这使得严厉的父亲(竹中直人饰)对他非常生气,父子俩的冲突不断升级。

  一天,诚治突然得知一直体谅、关心自己的母亲(浅野温子饰)患了抑郁症,自己的不上进、邻居对母亲的欺侮,使得母亲担忧、压力倍增。父亲和姐姐(井川遥饰)对自己的指责也让诚治开始意识到这样下去是不行的。诚治决定承担起家庭的责任,确立了为母亲买新房子的目标,即使是打工,即使是做辛苦的工地工作也要凑够钱,为母亲买房。

  在打工的工地上,诚治认识了性格开朗、踏实沉稳的千叶真奈美(香里奈饰),千叶虽然是个女孩儿,但是她从小时候开始就非常喜欢“桥梁”,她的理想是“成为一个桥梁设计师”。为了积累经验,她从土木工程著名大学毕业,加入了建筑公司,在工地上与男人们一起干活。千叶给了诚治很多的建议,两个人成为了好朋友,也逐渐地暗生情愫。








  1. General
  2. File size                      : 1.49 GiB
  3. Duration                       : 43mn 37s
  4. Overall bit rate               : 4 888 Kbps
  5. Encoded date                   : UTC 2013-03-17 04:58:16

  6. Video
  7. ID                             : 1
  8. Format                         : AVC
  9. Duration                       : 43mn 37s
  10. Bit rate                       : 4 500 Kbps
  11. Width                          : 1 280 pixels
  12. Height                         : 720 pixels
  13. Display aspect ratio           : 16:9
  14. Frame rate mode                : Constant
  15. Frame rate                     : 25.000 fps
  16. Color space                    : YUV
  17. Chroma subsampling             : 4:2:0
  18. Bit depth                      : 8 bits
  19. Scan type                      : Progressive
  20. Bits/(Pixel*Frame)             : 0.195
  21. Stream size                    : 1.34 GiB (90%)

  22. Audio #1
  23. ID                             : 2
  24. Format                         : AC-3
  25. Format/Info                    : Audio Coding 3
  26. Mode extension                 : CM (complete main)
  27. Format settings, Endianness    : Big
  28. Codec ID                       : A_AC3
  29. Duration                       : 43mn 37s
  30. Bit rate mode                  : Constant
  31. Bit rate                       : 192 Kbps
  32. Channel(s)                     : 2 channels
  33. Channel positions              : Front: L R
  34. Sampling rate                  : 48.0 KHz
  35. Frame rate                     : 31.250 fps (1536 spf)
  36. Compression mode               : Lossy
  37. Stream size                    : 59.9 MiB (4%)
  38. Default                        : Yes
  39. Forced                         : No

  40. Audio #2
  41. ID                             : 3
  42. Format                         : AC-3
  43. Format/Info                    : Audio Coding 3
  44. Mode extension                 : CM (complete main)
  45. Format settings, Endianness    : Big
  46. Codec ID                       : A_AC3
  47. Duration                       : 43mn 37s
  48. Bit rate mode                  : Constant
  49. Bit rate                       : 192 Kbps
  50. Channel(s)                     : 2 channels
  51. Channel positions              : Front: L R
  52. Sampling rate                  : 48.0 KHz
  53. Frame rate                     : 31.250 fps (1536 spf)
  54. Compression mode               : Lossy
  55. Stream size                    : 59.9 MiB (4%)
  56. Default                        : No
  57. Forced                         : No

  58. Text #1
  59. ID                             : 4
  60. Format                         : VobSub
  61. Muxing mode                    : zlib
  62. Codec ID                       : S_VOBSUB
  63. Codec ID/Info                  : Picture based subtitle format used on DVDs
  64. Default                        : Yes
  65. Forced                         : No

  66. Text #2
  67. ID                             : 5
  68. Format                         : VobSub
  69. Muxing mode                    : zlib
  70. Codec ID                       : S_VOBSUB
  71. Codec ID/Info                  : Picture based subtitle format used on DVDs
  72. Default                        : No
  73. Forced                         : No

复制代码


游客,如果您要查看本帖隐藏内容请回复

本帖子中包含更多资源

您需要 登录 才可以下载或查看,没有帐号?入住日史

x

评分

参与人数 1知行 +1 银子 +60 收起 理由
武田牧易 + 1 + 60 感谢分享!

查看全部评分

回复

使用道具 举报

发表于 2016-10-3 12:47:02 | 显示全部楼层
谢谢楼主分享
回复 支持 反对

使用道具 举报

发表于 2016-10-10 02:19:53 | 显示全部楼层
謝謝您的熱心分享
回复 支持 反对

使用道具 举报

发表于 2016-10-14 00:43:50 | 显示全部楼层
谢谢楼主分享
回复 支持 反对

使用道具 举报

发表于 2016-11-1 10:37:26 | 显示全部楼层
谢谢分享
回复

使用道具 举报

发表于 2017-2-8 21:25:14 | 显示全部楼层
谢谢楼主分享
回复 支持 反对

使用道具 举报

发表于 2018-2-8 20:46:38 | 显示全部楼层
希望度盘还有效
回复 支持 反对

使用道具 举报

发表于 2018-5-10 23:10:05 | 显示全部楼层
这样的剧真好适合我看,正能量
回复 支持 反对

使用道具 举报

发表于 2018-8-8 16:27:34 | 显示全部楼层

謝謝您的熱心分享
回复 支持 反对

使用道具 举报

您需要登录后才可以回帖 登录 | 入住日史

本版积分规则

Archiver|手机版|小黑屋|日本古代史论坛 ( 蜀ICP备05000094号

GMT+8, 2020-5-27 11:16 , Processed in 0.083081 second(s), 32 queries , Gzip On.

Powered by Discuz! X3.2

© 2001-2013 Comsenz Inc.

快速回复 返回顶部 返回列表