日本古代史论坛

 找回密码
 入住日史

QQ登录

只需一步,快速开始

扫一扫,访问微社区

搜索
查看: 423|回复: 2

[360&度盘][2013 720P BluRay DTS MKV 4.37G WiKi][萤之光(电影版)]

[复制链接]
发表于 2016-8-15 09:54:51 | 显示全部楼层 |阅读模式
本帖最后由 武田牧易 于 2016-10-13 17:06 编辑

如果对本资源有任何感触,除直接回帖表达之外,推荐前往千樱庭的吐槽专贴进行吐槽→太宰府日本资源吐槽专贴






导演: 吉野洋
编剧: 秀乐沙鹭
主演: 绫濑遥 / 藤木直人 / 板谷由夏 / 安田显 / 手越祐也 / 松雪泰子
类型: 剧情
官方网站: www.himono-movie.jp
制片国家/地区: 日本
语言: 日语
上映日期: 2012-06-09(日本)
片长: 109分钟
又名: 鱼干女又怎样:罗马假期(台) / 萤之光:罗马嫁期(港)
IMDb链接: tt2013233

历经无数考验与磨难,几经波澜,“傻宫”雨宫萤(绫濑遥 饰)终于和她最爱的百分百部长高野诚一(藤木直人 饰)修成正果,结为夫妇。新婚不久,夫妻二人相约前往罗马蜜月旅行。可是傻宫的干物女能量大爆发,从夏天到冬天,二人的旅行始终没有实现。借着部长去罗马公干的机缘,傻宫终于踏出家门,和部长来到了这个因《罗马假日》而为所有情侣所向往的浪漫胜地。在这里,他们还结识了超级干物女冴木莉央(松雪泰子 饰)和她的弟弟小优(手越祐也 饰)。与此同时,针对日本商务人士的绑架案相继发生,而部长也在某天意外失踪。异国他乡,傻宫如何找到失踪的爱人?
  本片根据ひうらさとる的同名漫画改编,为TV剧的电影版。

  1. General
  2. File size                      : 4.38 GiB
  3. Duration                       : 1h 49mn
  4. Overall bit rate               : 5 731 Kbps
  5. Encoded date                   : UTC 2012-12-29 04:40:26

  6. Video
  7. ID                             : 1
  8. Format                         : AVC
  9. Duration                       : 1h 49mn
  10. Bit rate                       : 4 219 Kbps
  11. Width                          : 1 280 pixels
  12. Height                         : 692 pixels
  13. Display aspect ratio           : 1.85:1
  14. Frame rate mode                : Constant
  15. Frame rate                     : 23.976 (24000/1001) fps
  16. Color space                    : YUV
  17. Chroma subsampling             : 4:2:0
  18. Bit depth                      : 8 bits
  19. Scan type                      : Progressive
  20. Bits/(Pixel*Frame)             : 0.199
  21. Stream size                    : 3.14 GiB (72%)

  22. Audio
  23. ID                             : 2
  24. Format                         : DTS
  25. Format/Info                    : Digital Theater Systems
  26. Mode                           : 16
  27. Format settings, Endianness    : Big
  28. Codec ID                       : A_DTS
  29. Duration                       : 1h 49mn
  30. Bit rate mode                  : Constant
  31. Bit rate                       : 1 509 Kbps
  32. Channel(s)                     : 6 channels
  33. Channel positions              : Front: L C R, Side: L R, LFE
  34. Sampling rate                  : 48.0 KHz
  35. Frame rate                     : 93.750 fps (512 spf)
  36. Bit depth                      : 16 bits
  37. Compression mode               : Lossy
  38. Stream size                    : 1.15 GiB (26%)
  39. Language                       : Japanese
  40. Default                        : Yes
  41. Forced                         : No

复制代码


游客,如果您要查看本帖隐藏内容请回复

本帖子中包含更多资源

您需要 登录 才可以下载或查看,没有帐号?入住日史

x

评分

参与人数 1知行 +1 银子 +31 收起 理由
武田牧易 + 1 + 31 感谢分享!

查看全部评分

回复

使用道具 举报

发表于 2016-8-18 19:09:40 | 显示全部楼层
谢谢您的分享,收藏
回复 支持 反对

使用道具 举报

发表于 2018-8-8 16:34:03 | 显示全部楼层
谢谢您的分享
回复 支持 反对

使用道具 举报

您需要登录后才可以回帖 登录 | 入住日史

本版积分规则

Archiver|手机版|小黑屋|日本古代史论坛 ( 蜀ICP备05000094号

GMT+8, 2020-5-25 21:52 , Processed in 0.073704 second(s), 30 queries , Gzip On.

Powered by Discuz! X3.2

© 2001-2013 Comsenz Inc.

快速回复 返回顶部 返回列表