日本古代史论坛

 找回密码
 入住日史

QQ登录

只需一步,快速开始

扫一扫,访问微社区

搜索
查看: 523|回复: 2

[360&度盘][2014 720P TBS HDTV MKV 4.5G DoA][mozu season2 全5集]

[复制链接]
发表于 2016-8-31 17:03:20 | 显示全部楼层 |阅读模式
本帖最后由 武田牧易 于 2016-10-14 16:06 编辑

如果对本资源有任何感触,除直接回帖表达之外,推荐前往千樱庭的吐槽专贴进行吐槽→太宰府日本资源吐槽专贴







中文名:MOZU Season2~幻之翼~
外文名:MOZU Season2~幻の翼~ / Mozu Season 2 - Maboroshi no Tsubasa / Mozu Season 2 - Illusionary Wing
导演: 羽住英一郎
编剧: 仁志光佑 / 逢坂剛(原作)
主演: 西岛秀俊 / 香川照之 / 真木阳子 / 苍井优 / 佐野史郎 / 池松壮亮 / 伊藤淳史 / 长谷川博己 / 石田百合子 / 小日向文世
类型: 剧情
官方网站: www.wowow.co.jp/drama/mozu_wowow/
制片国家/地区: 日本
语言: 日语
首播: 2014-06-22(日本)
集数: 5

剧情简介:
         距机场恐怖袭击爆炸案已经过去半年,警视厅公安部特务第一课警部仓木尚武(西岛秀俊 饰)撇开本职工作,全力追查妻子之死的真相,奔走辛劳过后让他瞥见俄罗斯恐怖组织Grzib的影子,在追查神秘之人伊万·泰勒时与自由撰稿人名波汐里(苍井优 饰)形成交集。与此同时,接二连三的冰锥杀人案发生,令仓木和搜查一课警部补大杉良太(香川照之 饰)想起本该葬身大海的新谷和彦(池松壮亮 饰)。另一方面,明星美希(真木阳子 饰)从未放弃寻找父亲的努力,直到某天父亲的身姿终于出现在视野中,但却给了她前所未有的冲击。千寻之死和α作战背后的秘密渐渐浮现,纷乱的线索逐一汇集一处,令人难以置信的真相以及攸关国家的更大的黑暗与阴谋则迟迟不曾显露……
  本片根据逢坂刚的原作改编。








  1. General
  2. File size                      : 1.04 GiB
  3. Duration                       : 1h 1mn
  4. Overall bit rate               : 2 440 Kbps
  5. Encoded date                   : UTC 2015-02-16 13:40:46

  6. Video
  7. ID                             : 1
  8. Format                         : AVC
  9. Duration                       : 1h 1mn
  10. Bit rate                       : 2 249 Kbps
  11. Width                          : 1 280 pixels
  12. Height                         : 720 pixels
  13. Display aspect ratio           : 16:9
  14. Frame rate mode                : Constant
  15. Frame rate                     : 23.976 (24000/1001) fps
  16. Color space                    : YUV
  17. Chroma subsampling             : 4:2:0
  18. Bit depth                      : 8 bits
  19. Scan type                      : Progressive
  20. Bits/(Pixel*Frame)             : 0.102
  21. Stream size                    : 985 MiB (92%)

  22. Audio
  23. ID                             : 2
  24. Format                         : AAC
  25. Duration                       : 1h 1mn
  26. Bit rate                       : 192 Kbps
  27. Channel(s)                     : 2 channels
  28. Channel positions              : Front: L R
  29. Sampling rate                  : 48.0 KHz
  30. Frame rate                     : 46.875 fps (1024 spf)
  31. Compression mode               : Lossy
  32. Delay relative to video        : 4ms
  33. Stream size                    : 82.6 MiB (8%)
  34. Language                       : Japanese
  35. Default                        : Yes
  36. Forced                         : No

复制代码


游客,如果您要查看本帖隐藏内容请回复

本帖子中包含更多资源

您需要 登录 才可以下载或查看,没有帐号?入住日史

x

评分

参与人数 1知行 +1 银子 +35 收起 理由
武田牧易 + 1 + 35 感谢分享!

查看全部评分

回复

使用道具 举报

发表于 2016-9-4 13:36:54 | 显示全部楼层
来看香川照之
回复 支持 反对

使用道具 举报

发表于 2018-8-8 15:10:01 | 显示全部楼层
謝謝樓主的分享
回复 支持 反对

使用道具 举报

您需要登录后才可以回帖 登录 | 入住日史

本版积分规则

Archiver|手机版|小黑屋|日本古代史论坛 ( 蜀ICP备05000094号

GMT+8, 2020-6-2 02:15 , Processed in 0.063386 second(s), 32 queries , Gzip On.

Powered by Discuz! X3.2

© 2001-2013 Comsenz Inc.

快速回复 返回顶部 返回列表