日本古代史论坛

 找回密码
 入住日史

QQ登录

只需一步,快速开始

扫一扫,访问微社区

搜索
查看: 354|回复: 2

[度盘][2015 720P NTV MKV 5.46G DoA][某某妻 全10集]

[复制链接]
发表于 2017-3-22 18:41:30 | 显示全部楼层 |阅读模式


外文名:○○妻、まるまるづま
其它译名:某某妻、神秘妻子
出品时间:2015年
出品公司:日本电视台(NTV)
制片地区:日本
首播时间:2015年1月14日
导    演:猪股隆一,日暮谦,铃木勇马
编    剧:游川和彦
主    演:柴崎幸,东山纪之,黑木瞳,城田优,莲佛美沙子
集    数:10集
每集长度:54分钟
类    型:爱情,喜剧
上映时间:2015年1月14日
制片人:大平太,福井宏,太田雅春

久保田正纯(东山纪之饰)是一档新闻类节目News Life的当家主播,他的事业顺风顺水,生活优渥,除了其出众过人的能力外,更有一位堪称完美的娇妻在背后筑起了坚强的后盾。正纯的妻子光(柴咲幸饰)美丽温柔,体贴可亲,她周到细致地打理好家中的一切,用心服务丈夫,为正纯的事业出谋划策,更主动承担起照顾婆婆的重任。
然而两人却维持着极不寻常的夫妻关系,光至今没有入籍,夫妻间依靠一纸每三年续签的合同维持,合同期间光负责打理家中的一切事务,甚至丈夫出轨也绝不过问,作为回报正纯将把年收入的一定比例支付给光。只是如今正纯不再满足于这样的虚假情分,他希望迎娶光,共同孕育下一代,谁知这份要求却遭到了妻子的拒绝。

  1. General
  2. File size                      : 1.28 GiB
  3. Duration                       : 59mn 4s
  4. Overall bit rate               : 3 093 Kbps
  5. Encoded date                   : UTC 2015-01-19 16:56:52

  6. Video
  7. ID                             : 1
  8. Format                         : AVC
  9. Duration                       : 59mn 4s
  10. Bit rate                       : 2 901 Kbps
  11. Width                          : 1 280 pixels
  12. Height                         : 720 pixels
  13. Display aspect ratio           : 16:9
  14. Frame rate mode                : Constant
  15. Frame rate                     : 29.970 (30000/1001) fps
  16. Color space                    : YUV
  17. Chroma subsampling             : 4:2:0
  18. Bit depth                      : 8 bits
  19. Scan type                      : Progressive
  20. Bits/(Pixel*Frame)             : 0.105
  21. Stream size                    : 1.20 GiB (94%)
  22. Title                          : DoA encoder

  23. Audio
  24. ID                             : 2
  25. Format                         : AAC
  26. Duration                       : 59mn 4s
  27. Bit rate                       : 192 Kbps
  28. Channel(s)                     : 2 channels
  29. Channel positions              : Front: L R
  30. Sampling rate                  : 48.0 KHz
  31. Frame rate                     : 46.875 fps (1024 spf)
  32. Compression mode               : Lossy
  33. Delay relative to video        : 19ms
  34. Stream size                    : 79.7 MiB (6%)
  35. Default                        : Yes
  36. Forced                         : No

复制代码








游客,如果您要查看本帖隐藏内容请回复

本帖子中包含更多资源

您需要 登录 才可以下载或查看,没有帐号?入住日史

x
回复

使用道具 举报

发表于 2017-3-23 00:12:34 | 显示全部楼层
谢谢分享
回复

使用道具 举报

发表于 2017-8-17 01:17:13 | 显示全部楼层

谢谢分享
回复

使用道具 举报

您需要登录后才可以回帖 登录 | 入住日史

本版积分规则

Archiver|手机版|小黑屋|日本古代史论坛 ( 蜀ICP备05000094号

GMT+8, 2020-6-4 21:39 , Processed in 0.072334 second(s), 26 queries , Gzip On.

Powered by Discuz! X3.2

© 2001-2013 Comsenz Inc.

快速回复 返回顶部 返回列表