日本古代史论坛

 找回密码
 入住日史

QQ登录

只需一步,快速开始

扫一扫,访问微社区

搜索
查看: 479|回复: 3

[度盘][2015 720P WOWOW MKV 5.64G DoA][潜入海底 全6集]

[复制链接]
发表于 2017-3-22 19:14:58 | 显示全部楼层 |阅读模式
本帖最后由 小叶子 于 2017-3-22 19:19 编辑



导演: 山本剛義
编剧: 朱野帰子
主演: 有村架纯 / 井上芳雄 / 板谷由夏 / 筒井道隆 / 高桥和也 / 石田卓也 / 水澤紳吾 / 时任三郎 / 西冈德马 / 平泉成 / 竹中直人 / 原田知世 / 远藤宪一
官方网站: www.wowow.co.jp/dramaw/umi/
制片国家/地区: 日本
语言: 日语
首播: 2015-10-10(日本)
集数: 6
又名: 降下深海 / 潜入海底
IMDb链接: tt4776076
有村架纯日剧初主演《降下深海》,朱野归子同名小说改编,是一部以深海为舞台的作品,故事讲述日本海洋研究开发机构「JAMSTEC」的潜水调查船「深海6500」,天谷深雪(有村架纯)属於当中的调查队,她的父亲厚志是驾驶员兼研究者,她小时候听到父亲有关深海的事後,决定以探索海洋为目标,在她的父亲病死後,深雪以驾驶员候补生身份每日工作着。
  某天她有机会乘上「深海6500」,而JAMSTEC也大力宣传首个日本女性驾驶员诞生,然而在潜航前深雪在父亲的储物柜发现一盒录影带,内有看到深海未知巨大生物的船员的恐怖影像,也有她父亲最後的身影,之後恐怖真的袭来,深雪能否从黑暗的深海安全回来?
  今次作品由实际存在的JAMSTEC全力协助,拍摄在冲绳本岛近海水深1500米的研究船「深海6500」内进行,以真实的深海世界及海洋科学最先进技术带来具实感的故事。拍摄会用上4K超高清摄录机,带来神秘而惊异的影像,是前所未见的深海日剧。
  主角有村表示角色担当海洋研究也是日本及世界的末来,这作品背景如此主题也让她感到很大的压力。这是她首次在连续剧担当主角这位置,感到不安和困惑,但她会像在男性主导的严酷环境中挺立的深雪那样,不撒娇作强力的演出。

  1. General
  2. File size                      : 1.03 GiB
  3. Duration                       : 49mn 40s
  4. Overall bit rate               : 2 980 Kbps
  5. Encoded date                   : UTC 2015-11-04 17:25:48

  6. Video
  7. ID                             : 1
  8. Format                         : AVC
  9. Duration                       : 49mn 40s
  10. Bit rate                       : 2 789 Kbps
  11. Width                          : 1 280 pixels
  12. Height                         : 720 pixels
  13. Display aspect ratio           : 16:9
  14. Frame rate mode                : Constant
  15. Frame rate                     : 23.976 (24000/1001) fps
  16. Color space                    : YUV
  17. Chroma subsampling             : 4:2:0
  18. Bit depth                      : 8 bits
  19. Scan type                      : Progressive
  20. Bits/(Pixel*Frame)             : 0.126
  21. Stream size                    : 991 MiB (94%)

  22. Audio
  23. ID                             : 2
  24. Format                         : AAC
  25. Duration                       : 49mn 40s
  26. Bit rate                       : 192 Kbps
  27. Channel(s)                     : 2 channels
  28. Channel positions              : Front: L R
  29. Sampling rate                  : 48.0 KHz
  30. Frame rate                     : 46.875 fps (1024 spf)
  31. Compression mode               : Lossy
  32. Delay relative to video        : 7ms
  33. Stream size                    : 67.0 MiB (6%)
  34. Language                       : Japanese
  35. Default                        : Yes
  36. Forced                         : No

复制代码








游客,如果您要查看本帖隐藏内容请回复

本帖子中包含更多资源

您需要 登录 才可以下载或查看,没有帐号?入住日史

x
回复

使用道具 举报

发表于 2017-3-23 00:23:25 | 显示全部楼层
谢谢分享
回复

使用道具 举报

发表于 2017-4-6 09:10:25 | 显示全部楼层
很多人都有深海恐惧症吧,一直觉得海洋下面未知的生物很恐怖。有喜欢的远藤大叔,感谢分享。。。
回复 支持 反对

使用道具 举报

发表于 2017-4-29 18:49:25 | 显示全部楼层
这个剧值得一看咧
回复 支持 反对

使用道具 举报

您需要登录后才可以回帖 登录 | 入住日史

本版积分规则

Archiver|手机版|小黑屋|日本古代史论坛 ( 蜀ICP备05000094号

GMT+8, 2020-6-4 23:49 , Processed in 0.052944 second(s), 26 queries , Gzip On.

Powered by Discuz! X3.2

© 2001-2013 Comsenz Inc.

快速回复 返回顶部 返回列表