日本古代史论坛

 找回密码
 入住日史

QQ登录

只需一步,快速开始

扫一扫,访问微社区

搜索
查看: 283|回复: 4

[度盘][2014 720P CX MKV 5.64G DoA][全部成为F 全10集]

[复制链接]
发表于 2017-3-22 19:22:39 | 显示全部楼层 |阅读模式


导演: 城宝秀则 / 小椋久雄 / 小林义则
编剧: 森博嗣(原作) / 黒岩勉 / 小山正太
主演: 武井咲 / 绫野刚 / 小泽征悦 / 早见明里 / 户次重幸 / 水泽绘玲奈 / 吉田钢太郎
类型: 剧情
官方网站: www.fujitv.co.jp/F
制片国家/地区: 日本
语言: 日语
首播: 2014-10-21(日本)
集数: 10
单集片长: 45分钟
又名: Subete ga F ni naru / The Perfect Insider
IMDb链接: tt3982614

神南大学工学部建筑系副教授犀川创平(绫野刚 饰)及该专业三年级学生西之园萌绘(武井咲 饰)近期正在撰写关于“最接近神的人类”——天才少女真贺田四季(早见明里 饰)的报告。在此期间,二人经土木工程系副教授喜多北斗(小泽征悦 饰)的介绍前往极地环境研究中心参观,谁知却目击了经过缜密计划的密室杀人事件。萌绘无视犀川教授的漠然,极其热情地展开推理和调查,更将自己置身于莫大的危险之中。最终在犀川教授的介入下,真相浮出水面。以此为契机,师生二人又接连卷入各种各样的密室杀人案中,他们将凭借现场的蛛丝马迹找出真正的凶手……
  本片根据森博嗣的小说改编。

  1. General
  2. File size                      : 3.39 GiB
  3. Duration                       : 57mn 24s
  4. Overall bit rate               : 8 462 Kbps
  5. Encoded date                   : UTC 2014-10-23 05:53:25

  6. Video
  7. ID                             : 1
  8. Format                         : AVC
  9. Duration                       : 57mn 24s
  10. Bit rate                       : 8 270 Kbps
  11. Width                          : 1 440 pixels
  12. Height                         : 1 080 pixels
  13. Display aspect ratio           : 16:9
  14. Frame rate mode                : Constant
  15. Frame rate                     : 29.970 (30000/1001) fps
  16. Color space                    : YUV
  17. Chroma subsampling             : 4:2:0
  18. Bit depth                      : 8 bits
  19. Scan type                      : MBAFF
  20. Scan type, store method        : Interleaved fields
  21. Scan order                     : Top Field First
  22. Bits/(Pixel*Frame)             : 0.177
  23. Stream size                    : 3.32 GiB (98%)

  24. Audio
  25. ID                             : 2
  26. Format                         : AAC
  27. Duration                       : 57mn 24s
  28. Bit rate                       : 192 Kbps
  29. Channel(s)                     : 2 channels
  30. Channel positions              : Front: L R
  31. Sampling rate                  : 48.0 KHz
  32. Frame rate                     : 46.875 fps (1024 spf)
  33. Compression mode               : Lossy
  34. Delay relative to video        : 10ms
  35. Stream size                    : 77.5 MiB (2%)
  36. Title                          : AAC-LC 2.0
  37. Language                       : Japanese
  38. Default                        : Yes
  39. Forced                         : No

复制代码








游客,如果您要查看本帖隐藏内容请回复

本帖子中包含更多资源

您需要 登录 才可以下载或查看,没有帐号?入住日史

x
回复

使用道具 举报

发表于 2017-4-4 11:40:57 | 显示全部楼层
相当不错的推理剧,值得收藏。
回复 支持 反对

使用道具 举报

发表于 2017-8-17 01:13:53 | 显示全部楼层
不错,谢谢楼主啊
回复 支持 反对

使用道具 举报

发表于 2017-8-19 19:08:35 | 显示全部楼层
这个不错,看看是不是有字幕,支持支持
回复 支持 反对

使用道具 举报

发表于 2018-8-8 13:35:26 | 显示全部楼层
謝謝樓主的分享
回复 支持 反对

使用道具 举报

您需要登录后才可以回帖 登录 | 入住日史

本版积分规则

Archiver|手机版|小黑屋|日本古代史论坛 ( 蜀ICP备05000094号

GMT+8, 2020-6-4 23:30 , Processed in 0.056808 second(s), 26 queries , Gzip On.

Powered by Discuz! X3.2

© 2001-2013 Comsenz Inc.

快速回复 返回顶部 返回列表